Под куполом / Under the Dome (2013) web-dlrip (Сезон 1 / Серии 1-10 из 13) AlexFilm (Обновляемая) Год выпуска




Скачать 34.29 Kb.
НазваниеПод куполом / Under the Dome (2013) web-dlrip (Сезон 1 / Серии 1-10 из 13) AlexFilm (Обновляемая) Год выпуска
Дата публикации02.02.2014
Размер34.29 Kb.
ТипПрограмма
shkolnie.ru > Информатика > Программа
Под куполом / Under the Dome (2013) WEB-DLRip (Сезон 1 / Серии 1-10 из 13) AlexFilm (Обновляемая)
picГод выпуска: 2013
Страна: США
Жанр: Ужасы, Фантастика

Перевод: Многоголосый закадровый, профессиональный - AlexFilm
pic
Автор перевода: Ольга Галайда
Озвучка: Евгения Тихонова, Пётр Иващенко (Гланц), Михаил Суслов, Михаил Шорыгин, Владимир Курдов

picpic
^ Дата мировой премьеры: 24 июня 2013

Режиссер: Джек Бендер
Актеры: Майк Фогель, Колин Форд, Аиша Хиндс, Александр Кох, Рашель Лефевр, Натали Мартинез, Дин Норрис, Джолин Парди, Бриттани Робертсон, Николас Стронг и др.

^ Описание фильма:
Обычным, пригожим осенним днем, город Честерс Миллз, штат Мэн, был внезапно отрезан от остального мира невидимым силовым барьером. Самолеты врезаются в купол и падают, пылая, с небес; садовнику отрезает силовым полем руку; люди, выехавшие в соседний город по делам, не могут вернуться к своим близким; автомобили взрываются от столкновения с куполом. Никто не понимает, что это за барьер, откуда он взялся и исчезнет ли он.

Дейл Барбара, ветеран конфликта в Ираке, а ныне повар, обнаруживает себя в команде с несколькими отважными жителями — Джулией Шамвей, владелицей городской газеты, помощником врача, женщиной и тремя храбрыми детьми. Против них выступает Большой Джим Ренни — местный политический деятель, который для удержания власти не остановится ни перед чем, даже перед убийством, а также его сын со своим личным «скелетом в шкафу». Но главный их противник — сам Купол…

Продолжительность: ~00:43:00
Качество видео: WEB-DLRip

Видеокодек: Xvid
Формат: AVI
Битрейт видео: ~1360 kb/s
Размер кадра: 720х400 (16:9)
Аудио Rus: (48,0 kHz, MPEG Layer 3, 2 ch, 128 k/bs)- многоголосый закадровый
Аудио Eng: (48,0 kHz, MPEG Layer 3, 2 ch, 128 k/bs)- оригинал

Сэмпл

Все раздачи "Под куполом / Under the Dome"

MediaInfo

Общее
Полное имя : D:\Downloads\Под куполом (Сезон 1) Under the Dome (2013) WEB-DLRip - AlexFilm\Under.the.Dome.s01e01.WEB-DLRip.Rus.Eng.AlexFilm.avi
Формат : AVI
Формат/Информация : Audio Video Interleave
Размер файла : 500 Мбайт
Продолжительность : 42 м.
Общий поток : 1630 Кбит/сек
Название фильма : Under the Dome 1х01 Pilot @ AlexFilm
Программа кодирования : VirtualDubMod 1.5.10.2 (build 2542/release)

Видео
Идентификатор : 0
Формат : MPEG-4 Visual
Профиль формата : Advanced Simple@L5
Параметр BVOP формата : 1
Параметр QPel формата : Нет
Параметр GMC формата : Без точки перехода
Параметр матрицы формата : Default (MPEG)
Идентификатор кодека : XVID
Идентификатор кодека/Подсказка : XviD
Продолжительность : 42 м.
Битрейт : 1360 Кбит/сек
Ширина : 720 пикселей
Высота : 400 пикселей
Соотношение сторон : 16:9
Частота кадров : 23,976 кадра/сек
Цветовое пространство : YUV
Субдискретизация насыщенности : 4:2:0
Битовая глубина : 8 бит
Тип развёртки : Прогрессивная
Метод сжатия : С потерями
Бит/(Пиксели*Кадры) : 0.197
Размер потока : 417 Мбайт (83%)
Библиотека кодирования : XviD 1.2.1 (UTC 2008-12-04)

Аудио #1
Идентификатор : 1
Формат : MPEG Audio
Версия формата : Version 1
Профиль формата : Layer 3
Режим : Joint stereo
Расширение режима : MS Stereo
Идентификатор кодека : 55
Идентификатор кодека/Подсказка : MP3
Продолжительность : 42 м.
Вид битрейта : Постоянный
Битрейт : 128 Кбит/сек
Каналы : 2 канала
Частота : 48,0 КГц
Метод сжатия : С потерями
Размер потока : 39,3 Мбайт (8%)
Выравнивание : Соединение по промежуткам
Продолжительность промежутка : 42 мс. (1,00 видеокадр)
Время предзагрузки промежутка : 504 мс.
Заголовок : Russian (AlexFilm)

Аудио #2
Идентификатор : 2
Формат : MPEG Audio
Версия формата : Version 1
Профиль формата : Layer 3
Режим : Joint stereo
Расширение режима : MS Stereo
Идентификатор кодека : 55
Идентификатор кодека/Подсказка : MP3
Продолжительность : 42 м.
Вид битрейта : Постоянный
Битрейт : 128 Кбит/сек
Каналы : 2 канала
Частота : 48,0 КГц
Метод сжатия : С потерями
Размер потока : 39,3 Мбайт (8%)
Выравнивание : Соединение по промежуткам
Продолжительность промежутка : 42 мс. (1,00 видеокадр)
Время предзагрузки промежутка : 504 мс.
Заголовок : English

Дополнительная информация

«Под Куполом» (Under the Dome) — роман Стивена Кинга, который опубликован в США 10 ноября 2009 года. Роман является переработанной идеей, с которой Кинг работал уже дважды, в конце 1970-х годов и в начале 1980-х — изначально под названием «Под Куполом», а потом «Каннибалы» (The Cannibals). Оба раза автор забрасывал работу, возвратившись к этому материалу лишь во второй половине 2000-х годов.

Раздача ведётся путём добавления новых серий

Раздача ведётся путём добавления новых серий; при каждом добавлении создаётся новый торрент. Чтобы начать докачку новой серии, пользователям необходимо сделать следующее:
(1) остановить скачивание,
(2) удалить старый торрент у себя из клиента (старые серии удалять не надо),
(3) скачать новый торрент и запустить его у себя в клиенте вместо старого, при этом указать клиенту путь в старую папку куда и должно происходить скачивание новых серий.

Ваш клиент при этом должен произвести хеширование (проверку) старой папки (если не производит сам - помогите ему сделать это), и будет докачивать только те серии которых у вас ещё нет. Старые серии при этом не удаляются, а продолжают раздаваться!

Eсли вы уже удалили старые серии, то предотвратить повторную закачку старых серий можно, отжав галочку в соответствующих местах при запуске нового торрента. По возможности, желательно не удалять старые серии как можно дольше чтобы релизёр не столько продолжал раздавать старые серии, а смог сконцентрироваться на новых.
Скриншоты:
picpicpicpic

Похожие:

Под куполом / Under the Dome (2013) web-dlrip (Сезон 1 / Серии 1-10 из 13) AlexFilm (Обновляемая) Год выпуска iconМы – Миллеры / We're the Millers (2013) web-dlrip Год выпуска
Актеры: Дженнифер Энистон, Джейсон Судейкис, Уилл Поултер, Эмма Робертс, Эд Хелмс, Ник Офферман, Кэтрин Хан, Молли С. Куинн, Томер...
Под куполом / Under the Dome (2013) web-dlrip (Сезон 1 / Серии 1-10 из 13) AlexFilm (Обновляемая) Год выпуска iconГод выпуска: 8 марта 2011 г. Год выпуска: 10 марта 2011 г. Год выпуска:...
Продолжение лучшей ролевой игры 2009 года от авторов Star Wars: Knights of the Old Republic и серии Mass Effect
Под куполом / Under the Dome (2013) web-dlrip (Сезон 1 / Серии 1-10 из 13) AlexFilm (Обновляемая) Год выпуска iconСимпсоны 18 Сезон / The Simpsons 18 season Серии с 1 по 8
...
Под куполом / Under the Dome (2013) web-dlrip (Сезон 1 / Серии 1-10 из 13) AlexFilm (Обновляемая) Год выпуска iconГод выпуска: IV квартал 2010 г. Год выпуска: 10 декабря 2010 г. Жанр:...
Поклонников серии игр о легендарном супергерое ждут приключения нового поколения – приключения в четырех мирах, объединенных сюжетом...
Под куполом / Under the Dome (2013) web-dlrip (Сезон 1 / Серии 1-10 из 13) AlexFilm (Обновляемая) Год выпуска iconСезон премьер на нтн начался!
На нтн – супер премьера новые серии любимого сериала. Стартует шестой сезон всемирно известного сериала "csi нью-Йорк". В новинке...
Под куполом / Under the Dome (2013) web-dlrip (Сезон 1 / Серии 1-10 из 13) AlexFilm (Обновляемая) Год выпуска iconГенеральный директор Кемеровского открытого акционерного общества «Азот»
Идентификационные признаки выпуска ценных бумаг: именные конвертируемые процентные бездокументарные облигации, серии 01 (далее по...
Под куполом / Under the Dome (2013) web-dlrip (Сезон 1 / Серии 1-10 из 13) AlexFilm (Обновляемая) Год выпуска iconКонвертируемые процентные бездокументарные облигации, серии 01 (далее...
Идентификационные признаки выпуска: именные конвертируемые процентные бездокументарные облигации, серии 01 (далее по тексту именуются...
Под куполом / Under the Dome (2013) web-dlrip (Сезон 1 / Серии 1-10 из 13) AlexFilm (Обновляемая) Год выпуска iconПобег из тюрьмы / Prison Break(1-4 сезон) Год выпуска
В ролях: Доминик Пёселл, Уэнтворф Миллер, Амори Ноласко, Уэйд Уильямс, Роберт Неппэ, Крис Вэнс, Роберт Уиздом, Дэйнэй Гарсиа, Джоуди...
Под куполом / Under the Dome (2013) web-dlrip (Сезон 1 / Серии 1-10 из 13) AlexFilm (Обновляемая) Год выпуска iconПобег 2 / 2 сезон Год выпуска
В ролях: Юрий Чурсин, Владимир Епифанцев, Екатерина Климова, Дания Агишева, Ольга Павловец, Олег Масленников (II), Анастасия Макеева,...
Под куполом / Under the Dome (2013) web-dlrip (Сезон 1 / Серии 1-10 из 13) AlexFilm (Обновляемая) Год выпуска iconГод выпуска: 16 ноября 2010 г. Год выпуска: 16 ноября 2010 г. Год...
Видеокарта: ati radeon hd 2600 / nvidia geForce 8600 gt или лучше с с 256 Мб видеопамяти с поддержкой Shader 0
Вы можете разместить ссылку на наш сайт:
Школьные материалы


При копировании материала укажите ссылку © 2014
shkolnie.ru
Главная страница