Теккен: Кровная месть / Tekken: Blood Vengeance (2011) bdrip 3D




Скачать 27.44 Kb.
НазваниеТеккен: Кровная месть / Tekken: Blood Vengeance (2011) bdrip 3D
Дата публикации18.07.2013
Размер27.44 Kb.
ТипПрограмма
shkolnie.ru > Информатика > Программа
Теккен: Кровная месть / Tekken: Blood Vengeance (2011) BDRip 3D
picРусское название: Теккен: Кровная месть
Оригинальное название: Tekken: Blood Vengeance
Год выпуска: 2011
Жанр: мультфильм, фантастика, боевик
Страна: Япония
Описание фильма:
Лин Сяою, мастер китайских боевых искусств, получает задание от Анны Вильямс из корпорации G, находящейся под командованием Казуи Мисима. Задача Лин состоит в том, чтобы проникнуть в качестве шпиона в Киотскую международную школу и найти студента по имени Син Камия. Однако Син совершает самоубийство по неизвестной причине, и раcследование Сяою заходит в тупик. После этого Лин встречает таинственную девушку по имени Алиса, и они продолжают расследование вместе. Они узнают, что Син, вероятно, был кем-то похищен. Сяою хочет спасти Сина, для этого она начинает самостоятельное расследование, но она попадает в огромные владения корпорации Мисима Заибацу, которые скрывают тайные родственные заговоры с участием членов семьи Мисима — Дзина Казама, Казуи Мисима и вероятнее всего скончавшегося Хейхати Мисима...
Режиссер: Yoichi Mori
Актеры: Тиба Иссин, Юки Мацуока, Аманда Селин Миллер, Мамору Мияно, Рётаро Окиаю, Маая Сакамото, Masanori Shinohara, Hidenari Ugaki, Акено Ватанабе
Рейтинги: picpic
Дата мировой премьеры: 26 июля 2011
Релиз на Blu-Ray: 22 ноября 2011
Перевод: Закадровый многоголосый
Субтитры: Нет
Продолжительность: 01:32:10
Контейнер: MKV
Качество видео: BDRip 3D
Формат 3D: Half SideBySide / Горизонтальная анаморфная стереопара
Видеокодек:^ MPEG-4 AVC / H.264
Битрейт видео: ~ 17,0 mbps
Размер кадра: 1920x1080p
Аудиокодек: AC3
Аудио: Русский Dolby Digital Audio 5.1 / 48 kHz / 640 kbps / DN -4dB (MVO - AnimeSpace)

MediaInfo

Общее
Уникальный идентификатор : 231294138908333242292706433135187140151 (0xAE01A17CAA2829C1AC9F297CBEB51E37)
Полное имя : H:\Rip\TEKKEN_BDRip_3D\TEKKEN_BDRip_3D.mkv
Формат : Matroska
Размер файла : 11,3 Гбайт
Продолжительность : 1 ч. 32 м.
Общий поток : 17,6 Мбит/сек
Название фильма : TEKKEN 3D
Дата кодирования : UTC 2011-12-25 15:25:57
Программа кодирования : mkvmerge v4.8.0 ('I Got The...') сборка от May 24 2011 03:12:58
Библиотека кодирования : libebml v1.2.0 + libmatroska v1.1.0

Видео
Идентификатор : 1
Формат : AVC
Формат/Информация : Advanced Video Codec
Профиль формата : High@L4.1
Параметр CABAC формата : Да
Параметр ReFrames формата : 3 кадра
Параметры GOP формата : M=4, N=24
Идентификатор кодека : V_MPEG4/ISO/AVC
Продолжительность : 1 ч. 32 м.
Вид битрейта : Переменный
Битрейт : 17,0 Мбит/сек
Максимальный битрейт : 30,0 Мбит/сек
Ширина : 1920 пикс.
Высота : 1080 пикс.
Соотношение сторон : 16:9
Частота кадров : 23,976 кадр/сек
Цветовое пространство : YUV
Подвыборка цветности : 4:2:0
Битовая глубина : 8 бит
Тип развёртки : Прогрессивная
Бит/(Пиксели*Кадры) : 0.342
Размер потока : 10,7 Гбайт (94%)
Библиотека кодирования : x264 core 116 r2074 2641b9e
Настройки программы : cabac=1 / ref=4 / deblock=1:-1:-1 / analyse=0x3:0x133 / me=umh / subme=7 / psy=1 / psy_rd=1.00:0.15 / mixed_ref=1 / me_range=24 / chroma_me=1 / trellis=1 / 8x8dct=1 / cqm=0 / deadzone=21,11 / fast_pskip=1 / chroma_qp_offset=-3 / threads=6 / sliced_threads=0 / slices=4 / nr=0 / decimate=1 / interlaced=0 / bluray_compat=0 / constrained_intra=0 / bframes=3 / b_pyramid=1 / b_adapt=1 / b_bias=0 / direct=1 / weightb=1 / open_gop=0 / weightp=0 / keyint=24 / keyint_min=2 / scenecut=40 / intra_refresh=0 / rc_lookahead=24 / rc=2pass / mbtree=1 / bitrate=16986 / ratetol=1.0 / qcomp=0.60 / qpmin=0 / qpmax=69 / qpstep=4 / cplxblur=20.0 / qblur=0.5 / vbv_maxrate=30000 / vbv_bufsize=25000 / nal_hrd=vbr / ip_ratio=1.40 / aq=1:1.00
Язык : English

Аудио
Идентификатор : 2
Формат : AC-3
Формат/Информация : Audio Coding 3
Расширение режима : CM (complete main)
Идентификатор кодека : A_AC3
Продолжительность : 1 ч. 32 м.
Вид битрейта : Постоянный
Битрейт : 640 Кбит/сек
Каналы : 6 каналов
Расположение каналов : Front: L C R, Side: L R, LFE
Частота : 48,0 КГц
Битовая глубина : 16 бит
Метод сжатия : С потерями
Размер потока : 422 Мбайт (4%)
Язык : Russian

Меню
00:00:00.000 : en:00:00:00.000
00:06:49.409 : en:00:06:49.409
00:11:10.211 : en:00:11:10.211
00:14:33.623 : en:00:14:33.623
00:18:59.722 : en:00:18:59.722
00:24:56.870 : en:00:24:56.870
00:30:58.273 : en:00:30:58.273
00:39:34.914 : en:00:39:34.914
00:42:30.381 : en:00:42:30.381
00:47:24.467 : en:00:47:24.467
00:50:18.182 : en:00:50:18.182
00:53:20.614 : en:00:53:20.614
00:56:37.853 : en:00:56:37.853
01:03:23.758 : en:01:03:23.758
01:08:49.125 : en:01:08:49.125
01:16:02.016 : en:01:16:02.016
01:24:44.705 : en:01:24:44.705
01:28:39.314 : en:01:28:39.314

[свернуть]

Дополнительно от автора рипа

При создании рипа разностность левого и правого ракурсов (глубина стереоэффекта) исходного Blu-ray 3D не изменена. Видео сжато с минимальными потерями и сведено в горизонтальную анаморфную стереопару.

[свернуть]

Внимание: При использовании програмного 3D плеера ArcSoft TotalMedia Theatre 3 или Arcsoft TotalMedia Theatre Platinum 5 просмотр возможен как в 3D, так и в 2D режиме без двоения экрана.
Скриншоты:
picpicpicpic
picpicpicpic

Похожие:

Теккен: Кровная месть / Tekken: Blood Vengeance (2011) bdrip 3D iconПриключения Тинтина: Тайна Единорога / The Adventures of Tintin (2011) bdrip 3d русское название
Главный герой молодой газетный репортёр Тинтин. Благодаря своей профессии он путешествует по всему миру и становится участником увлекательных...
Теккен: Кровная месть / Tekken: Blood Vengeance (2011) bdrip 3D iconДелай ноги 2 / Happy Feet Two (2011) bdrip 3D
Его малыш — Эрик, в точности такой же свободолюбивый и независимый, как и папа, но в своих амбициях и авантюрах, несмотря на свой...
Теккен: Кровная месть / Tekken: Blood Vengeance (2011) bdrip 3D iconКот в сапогах / Puss in Boots (2011) bdrip
Роли озвучивали: Антонио Бандерас, Сальма Хайек, Зак Галифианакис, Билли Боб Торнтон, Эми Седарис, Констанс Мари, Гильермо дель Торо,...
Теккен: Кровная месть / Tekken: Blood Vengeance (2011) bdrip 3D iconКунг-фу Панда 2 / Kung Fu Panda 2 (2011) bdrip 3D
Панда По наконец-то исполнит свою мечту, станет Воином Дракона и со своими друзьями и мастерами кунг-фу — Неистовой Пятеркой — защитит...
Теккен: Кровная месть / Tekken: Blood Vengeance (2011) bdrip 3D iconA nightmare On Elm Street: Anthology (1984-2010) bdrip
Кошмар на улице Вязов: Антология / a nightmare On Elm Street: Anthology (1984-2010) bdrip
Теккен: Кровная месть / Tekken: Blood Vengeance (2011) bdrip 3D iconCholesterol is a wax-like substance. The liver makes it and links...

Теккен: Кровная месть / Tekken: Blood Vengeance (2011) bdrip 3D iconТарбозавр / Jeombaki: Hanbandoeui Gongryong (2011) bdrip
Одноглазый. Потерявшись, Пятнистый встречается с другим динозавриком, отбившимся от родных, — Синеглазкой. Отныне малышам предстоит...
Теккен: Кровная месть / Tekken: Blood Vengeance (2011) bdrip 3D iconТактическая сила / Tactical Force (2011) bdrip Русское название
Актеры: Майкл Джей Уайт, Стив Остин, Майкл Шэнкс, Лекса Дойг, Даррен Шахлави, Адриан Холмс, Стив Бачич, Майкл Эклунд, Кейт Джардин,...
Теккен: Кровная месть / Tekken: Blood Vengeance (2011) bdrip 3D iconКожа, в которой я живу / La piel que habito (2011) bdrip Русское название
Гений пластической хирургии д-р Ледгард, путем дерзких генетических экспериментов создавший искусственную человеческую кожу, ведет...
Теккен: Кровная месть / Tekken: Blood Vengeance (2011) bdrip 3D iconДаниэль Клугер Еврейские баллады Месть Прекрасной Дамы Разговор при свечах Ночная серенада

Вы можете разместить ссылку на наш сайт:
Школьные материалы


При копировании материала укажите ссылку © 2014
shkolnie.ru
Главная страница